[go: up one dir, main page]

Você está visualizando o YouTube em Português (Brasil). É possível alterar essa preferência abaixo.
You're viewing YouTube in Portuguese (Brazil). You can change this preference below.
353.719
  • Reginaldo Rossi 1996 - O Melhor CD (Cópia Exata) - 16 Músicas Masterizadas (HD)

    172.545 visualizações 4 meses atrás
    01 - 00:00 Enquanto Durou
    02 - 03:20 Um Pedaço Do Céu
    03 - 06:59 Ingratidão (O Melhor Amigo Meu)
    04 - 10:58 Coração Safado
    05 - 14:56 Quando Você Foi Embora
    06 - 18:21 Dono Do Coração
    07 - 21:14 Mulher
    08 - 25:36 Me Voy Pra Itamaracá
    09 - 29:04 Eu Devia Te Odiar
    10 - 32:04 Me Mata Querida
    11 - 36:34 Sua Ausência
    12 - 39:50 Não Aguento A Solidão
    13 - 44:02 Sai De Mim
    14 - 47:38 Meu Idiota Coração
    15 - 50:49 Não Vale A Pena
    16 - 53:04 Cuca Fresca
    17 - 57:29 Repetição do CD (2 vezes)
    Valeu, Grande Rei, descanse em paz (*1944 †2013).
    © Todos os direitos reservados aos seus respectivos donos.
    P.S. 1 Esse áudio é um cópia exata do que está no CD.
    Áudio
    Formato: PCM
    Conf. do Formato: Little / Signed
    ID do Codec: A_PCM/INT/LIT
    Duração: 2 h 52 min
    Modo da taxa de bits: Constante
    Nº de canais: 2 canais
    Taxa de amostragem: 44.1 kHz
    BitDepth/String: 16 bits
    Default: Sim
    Forced: Não
    Obs. Volume do CD: 94,3 dB. Normalmente, passo todos os meus arquivos de áudio para 92,0 dB.
    Programa MediaInfo:
    https://www.videohelp.com/s......

    P.S. 2 Pra ripar o CD, usei esse programa (o melhor de todos):
    Exact Audio Copy V1.3
    http://www.exactaudiocopy.d......
    Exact Audio Copy V1.3 from 2. September 2016
    EAC extraction logfile from 25. July 2018, 15:51
    Unknown Artist / Unknown Title
    Used drive: ATAPI BD E DH12E3SH Adapter: 1 ID: 0
    Read mode: Burst
    Read offset correction: 702
    Overread into Lead-In and Lead-Out: No
    Fill up missing offset samples with silence: Yes
    Delete leading and trailing silent blocks: No
    Null samples used in CRC calculations: Yes
    Used interface: Native Win32 interface for Win NT & 2000
    Used output format: Internal WAV Routines
    Sample format: 44.100 Hz; 16 Bit; Stereo


    TOC of the extracted CD Track | Start | Length | Start sector | End sector --------------------------------------------------------- 1 | 0:00.00 | 3:21.40 | 0 | 15114 2 | 3:21.40 | 3:39.17 | 15115 | 31556 3 | 7:00.57 | 3:59.33 | 31557 | 49514 4 | 11:00.15 | 3:58.07 | 49515 | 67371 5 | 14:58.22 | 3:25.38 | 67372 | 82784 6 | 18:23.60 | 2:52.52 | 82785 | 95736 7 | 21:16.37 | 4:23.38 | 95737 | 115499 8 | 25:40.00 | 3:25.42 | 115500 | 130916 9 | 29:05.42 | 3:00.03 | 130917 | 144419 10 | 32:05.45 | 4:30.30 | 144420 | 164699 11 | 36:36.00 | 3:15.47 | 164700 | 179371 12 | 39:51.47 | 4:13.03 | 179372 | 198349 13 | 44:04.50 | 3:36.25 | 198350 | 214574 14 | 47:41.00 | 3:09.57 | 214575 | 228806 15 | 50:50.57 | 2:15.08 | 228807 | 238939 16 | 53:05.65 | 4:23.22 | 238940 | 258686




    Range status and errors

    Selected range Filename C:\Users\MrJunior\Desktop\CD ROSSI 1996 OFICIAL\1996 OFICIAL ROSSI\cd.wav Timing problem 0:44:51 Timing problem 0:46:45 Timing problem 0:48:57 Timing problem 0:51:19 Timing problem 0:52:29 Peak level 99.9 % Extraction speed 30.4 X Copy CRC CEAC9E0F Copy finished

    No errors occurred


    AccurateRip summary

    Track 1 accurately ripped (confidence 2) [980B6216] (AR v2)
    Track 2 accurately ripped (confidence 2) [D625D689] (AR v2)
    Track 3 accurately ripped (confidence 2) [3CF8B27B] (AR v2)
    Track 4 accurately ripped (confidence 2) [0C04AD6C] (AR v2)
    Track 5 accurately ripped (confidence 2) [774D3751] (AR v2)
    Track 6 accurately ripped (confidence 2) [67AE9CEB] (AR v2)
    Track 7 accurately ripped (confidence 1) [87F1BFA5] (AR v2)
    Track 8 accurately ripped (confidence 2) [208695AA] (AR v2)
    Track 9 accurately ripped (confidence 2) [B5D0A782] (AR v2)
    Track 10 accurately ripped (confidence 2) [FBE9A5C3] (AR v2)
    Track 11 accurately ripped (confidence 2) [D1E8AAE4] (AR v2)
    Track 12 accurately ripped (confidence 2) [7DFB519A] (AR v2)
    Track 13 accurately ripped (confidence 2) [6CC9D230] (AR v2)
    Track 14 accurately ripped (confidence 2) [E5177BC8] (AR v2)
    Track 15 accurately ripped (confidence 2) [F91FF203] (AR v2)
    Track 16 accurately ripped (confidence 2) [B4E699A3] (AR v2)

    All tracks accurately ripped

    End of status report Mostrar menos
    Mais informações
  • Reginaldo Rossi - Discografia Completa (1966 a 2010) Reproduzir todos

    Este item foi ocultado
  • Canais Recomendados

    Este item foi ocultado
  • Canais Relacionados

    Este item foi ocultado
para adicionar este vídeo à playlist "Assistir mais tarde"

Adicionar a

Carregando playlists...